Drillbit Taylor 2008 720p Esub BluRay Dual Audio English Hindi GOPISAHI

.
Download .Torrent Magnet
Torren Name: Drillbit Taylor 2008 720p Esub BluRay Dual Audio English Hindi GOPISAHI
File size: 816.08 MB
Categories: HindiDubbed
Uploader: TodayPkmovies
Seeders: 41 Leechers: 12 Downloaded: 1523
Last scrape: 20 October 2017 18:18:15


ebff283becf5d0f55d55d198c11928ba.png


Format : Matroska 
File size : 816 MiB 
Duration : 1 h 50 min 
Overall bit rate : 1 036 kb/s 
Movie name : Drillbit Taylor 2008 
Encoded date : UTC 2013-07-10 14:47:54 

Video 
Format : AVC 
Codec ID : V_MPEG4/ISO/AVC 
Duration : 1 h 50 min 
Bit rate : 857 kb/s 
Width : 1 280 pixels 
Height : 528 pixels 
Display aspect ratio : 2.40:1 
Frame rate mode : Constant 
Frame rate : 23.976 (24000/1001) FPS 
Stream size : 675 MiB (83%) 
Writing library : x264 

Audio #1 
Format : AAC 
Duration : 1 h 50 min 
Bit rate : 86.6 kb/s 
Channel(s) : 6 channels 
Channel positions : Front: L C R, Side: L R, LFE 
Sampling rate : 44.1 kHz 
Frame rate : 43.066 FPS (1024 SPF) 
Stream size : 68.3 MiB (8%) 
Language : English 

Audio #2 
Format : AAC 
Duration : 1 h 45 min @ CRIDTS CUT 
Bit rate : 93.2 kb/s 
Channel(s) : 6 channels 
Channel positions : Front: L C R, Side: L R, LFE 
Sampling rate : 44.1 kHz 
Frame rate : 43.066 FPS (1024 SPF) 
Stream size : 70.5 MiB (9%) 
Language : Hindi 

Text 
Language : English