You Don't Mess With The Zohan 2008 720p BluRay Rip Dual Audio English Hindi Dubbed

.
Download .Torrent Magnet
Torren Name: You Don't Mess With The Zohan 2008 720p BluRay Rip Dual Audio English Hindi Dubbed
File size: 957.63 MB
Categories: HindiDubbed
Uploader: TodayPkmovies
Seeders: 24 Leechers: 6 Downloaded: 594
Last scrape: 20 October 2017 07:55:30


ebff283becf5d0f55d55d198c11928ba.png

Format                         : Matroska 
Format version                 : Version 4 / Version 2 
File size                      : 958 MiB 
Duration                       : 1 h 56 min 
Overall bit rate               : 1 145 kb/s 
Movie name                     : You Don't Mess With The Zohan 2008 

Video 
Format                         : AVC 
Codec ID                       : V_MPEG4/ISO/AVC 
Duration                       : 1 h 56 min 
Bit rate                       : 999 kb/s 
Width                          : 1 280 pixels 
Height                         : 696 pixels 
Display aspect ratio           : 1.85:1 
Frame rate                     : 23.976 (24000/1001) FPS 
Stream size                    : 834 MiB (87%) 
Writing library                : x264 

Audio #1 
Format                         : AAC 
Duration                       : 1 h 56 min 
Bit rate                       : 91.2 kb/s 
Channel(s)                     : 6 channels 
Channel positions              : Front: L C R, Side: L R, LFE 
Sampling rate                  : 44.1 kHz 
Frame rate                     : 43.066 FPS (1024 SPF)s 
Stream size                    : 76.3 MiB (8%) 
Language                       : English 

Audio #2 
Format                         : AAC 
Duration                       : 1 h 50 min 
Bit rate                       : 56.3 kb/s 
Channel(s)                     : 6 channels 
Channel positions              : Front: L C R, Side: L R, LFE 
Sampling rate                  : 48.0 kHz 
Frame rate                     : 46.875 FPS (1024 SPF) 
Stream size                    : 44.5 MiB (5%) 
Language                       : Hindi 

Text 
Language                       : English