Hellboy 2004 720p BRRip x264 Dual Audio [Hindi Dubbed - Tamil - English]

.
Download .Torrent Magnet
Torren Name: Hellboy 2004 720p BRRip x264 Dual Audio [Hindi Dubbed - Tamil - English]
File size: 1012.53 MB
Categories: HindiDubbed
Uploader: TodayPkmovies
Seeders: 3 Leechers: 9 Downloaded: 370
Last scrape: 20 October 2017 20:38:04


ebff283becf5d0f55d55d198c11928ba.png





General 
Format : Matroska 
Format version : Version 4 / Version 2 
File size : 1 013 MiB 
Duration : 2 h 12 min 
Overall bit rate : 1 068 kb/s 

Video 
ID : 1 
Format : AVC 
Format/Info : Advanced Video Codec 
Format profile : [email protected] 
Format settings : CABAC / 8 Ref Frames 
Format settings, CABAC : Yes 
Format settings, RefFrames : 8 frames 
Codec ID : V_MPEG4/ISO/AVC 
Duration : 2 h 12 min 
Bit rate : 750 kb/s 
Width : 1 280 pixels 
Height : 688 pixels 
Display aspect ratio : 1.85:1 
Frame rate mode : Constant 
Frame rate : 23.976 (24000/1001) FPS 
Color space : YUV 
Chroma subsampling : 4:2:0 
Bit depth : 8 bits 
Scan type : Progressive 
Bits/(Pixel*Frame) : 0.036 
Stream size : 710 MiB (70%) 
Title : Hellboy 2004 720p BRRip x264 Dual Audio [Hindi - Tamil - English 2.0] ESub 
Writing library : x264 core 120 r2164 da19765 
Default : Yes 
Forced : No 

Audio #1 
ID : 2 
Format : AC-3 
Format/Info : Audio Coding 3 
Format settings, Endianness : Big 
Codec ID : A_AC3 
Duration : 2 h 12 min 
Bit rate mode : Constant 
Bit rate : 96.0 kb/s 
Channel(s) : 2 channels 
Channel positions : Front: L R 
Sampling rate : 44.1 kHz 
Frame rate : 28.711 FPS (1536 SPF) 
Bit depth : 16 bits 
Compression mode : Lossy 
Stream size : 91.0 MiB (9%) 
Title : Hindi 
Language : Hindi 
Service kind : Complete Main 
Default : Yes 
Forced : No 

Audio #2 
ID : 3 
Format : AAC 
Format/Info : Advanced Audio Codec 
Format profile : LC 
Codec ID : A_AAC-2 
Duration : 2 h 12 min 
Bit rate : 128 kb/s 
Channel(s) : 2 channels 
Channel positions : Front: L R 
Sampling rate : 44.1 kHz 
Frame rate : 43.066 FPS (1024 SPF) 
Compression mode : Lossy 
Stream size : 121 MiB (12%) 
Title : Tamil 
Language : Tamil 
Default : No 
Forced : No 

Audio #3 
ID : 4 
Format : AAC 
Format/Info : Advanced Audio Codec 
Format profile : LC 
Codec ID : A_AAC-2 
Duration : 2 h 12 min 
Bit rate : 92.0 kb/s 
Channel(s) : 2 channels 
Channel positions : Front: L R 
Sampling rate : 48.0 kHz 
Frame rate : 46.875 FPS (1024 SPF) 
Compression mode : Lossy 
Stream size : 87.2 MiB (9%) 
Title : English 
Language : English 
Default : No 
Forced : No 

Text 
ID : 5 
Format : UTF-8 
Codec ID : S_TEXT/UTF8 
Codec ID/Info : UTF-8 Plain Text 
Duration : 2 h 6 min 
Bit rate : 35 b/s 
Count of elements : 1212 
Stream size : 33.2 KiB (0%) 
Language : English 
Default : Yes 
Forced : No