Judwaa 2 (2017) - 1CD - DesiPreDVD-Rip - Hindi - x264 - MP3 - Mafiaking - M2Tv

.
Download .Torrent Magnet
Torren Name: Judwaa 2 (2017) - 1CD - DesiPreDVD-Rip - Hindi - x264 - MP3 - Mafiaking - M2Tv
Org Name: Judwaa 2
File size: 710.24 MB
Categories: Hindi
Uploader: TodayPkmovies
Seeders: 123 Leechers: 41 Downloaded: 8086
Last scrape: 21 October 2017 04:07:27


ebff283becf5d0f55d55d198c11928ba.png








Quote:







Ratings: 3.9/10 

Genere: Action, Comedy, Drama 

General 
Complete name : Judwaa 2 (2017) - 1CD - DesiPreDVD-Rip - Hindi - x264 - MP3 - Mafiaking - M2Tv.mkv 
Format : Matroska 
Format version : Version 4 / Version 2 
File size : 706 MiB 
Duration : 2 h 21 min 
Overall bit rate : 696 kb/s 
Movie name : Judwaa 2 (2017) - 1CD - DesiPreDVD-Rip - Hindi - x264 - MP3 - Mafiaking - M2Tv 

Video 
ID : 1 
Format : AVC 
Format/Info : Advanced Video Codec 
Format profile : [email protected] 
Format settings, CABAC : Yes 
Format settings, RefFrames : 4 frames 
Codec ID : V_MPEG4/ISO/AVC 
Duration : 2 h 21 min 
Bit rate : 630 kb/s 
Width : 640 pixels 
Height : 272 pixels 
Display aspect ratio : 2.35:1 
Frame rate mode : Constant 
Frame rate : 23.976 (24000/1001) FPS 
Color space : YUV 
Chroma subsampling : 4:2:0 
Bit depth : 8 bits 
Scan type : Progressive 
Bits/(Pixel*Frame) : 0.151 
Stream size : 639 MiB (91%) 
Title : Mafiaking 
Language : Hindi 
Default : Yes 
Forced : No 

Audio 
ID : 2 
Format : MPEG Audio 
Format version : Version 2 
Format profile : Layer 3 
Mode : Joint stereo 
Codec ID : A_MPEG/L3 
Codec ID/Hint : MP3 
Duration : 2 h 21 min 
Bit rate mode : Constant 
Bit rate : 64.0 kb/s 
Channel(s) : 2 channels 
Sampling rate : 24.0 kHz 
Frame rate : 41.667 FPS (576 SPF) 
Compression mode : Lossy 
Stream size : 64.9 MiB (9%) 
Title : Mafiaking 
Writing library : LAME3.99r 
Language : Hindi 
Default : Yes 
Forced : No 

SAMPLE WITH IN TORRENT 





**To View Image In Full Size Click on Thumbnails**