Despicable Me 3 2017 1080p BluRay Dual Audio [Hindi DD 5.1 - English 2.0] ESub

.
Download .Torrent Magnet
Torren Name: Despicable Me 3 2017 1080p BluRay Dual Audio [Hindi DD 5.1 - English 2.0] ESub
Org Name: Despicable Me 3
File size: 1.57 GB
Categories: HindiDubbed
Uploader: iamdon
Seeders: 114 Leechers: 52 Downloaded: 5072
Last scrape: 20 October 2017 06:09:41


ebff283becf5d0f55d55d198c11928ba.png

Despicable Me 3 2017 1080p BluRay Dual Audio [Hindi DD 5.1 - English 2.0] ESub








General 
Format : Matroska 
Format version : Version 4 / Version 2 
File size : 1.57 GiB 
Duration : 1 h 29 min 
Overall bit rate : 2 500 kb/s 

Video 
ID : 1 
Format : AVC 
Format/Info : Advanced Video Codec 
Format profile : [email protected] 
Format settings : CABAC / 4 Ref Frames 
Format settings, CABAC : Yes 
Format settings, RefFrames : 4 frames 
Codec ID : V_MPEG4/ISO/AVC 
Duration : 1 h 29 min 
Bit rate : 2 050 kb/s 
Width : 1 920 pixels 
Height : 800 pixels 
Display aspect ratio : 2.40:1 
Frame rate mode : Constant 
Frame rate : 23.976 (24000/1001) FPS 
Color space : YUV 
Chroma subsampling : 4:2:0 
Bit depth : 8 bits 
Scan type : Progressive 
Bits/(Pixel*Frame) : 0.056 
Stream size : 1.28 GiB (82%) 
Writing library : x264 core 148 
Default : Yes 
Forced : No 

Audio #1 
ID : 2 
Format : AC-3 
Format/Info : Audio Coding 3 
Format settings, Endianness : Big 
Codec ID : A_AC3 
Duration : 1 h 29 min 
Bit rate mode : Constant 
Bit rate : 384 kb/s 
Channel(s) : 6 channels 
Channel positions : Front: L C R, Side: L R, LFE 
Sampling rate : 48.0 kHz 
Frame rate : 31.250 FPS (1536 SPF) 
Bit depth : 16 bits 
Compression mode : Lossy 
Delay relative to video : 14 ms 
Stream size : 246 MiB (15%) 
Language : Hindi 
Service kind : Complete Main 
Default : Yes 
Forced : Yes 

Audio #2 
ID : 3 
Format : AAC 
Format/Info : Advanced Audio Codec 
Format profile : LC 
Codec ID : A_AAC-2 
Duration : 1 h 29 min 
Bit rate : 64.3 kb/s 
Channel(s) : 2 channels 
Channel positions : Front: L R 
Sampling rate : 44.1 kHz 
Frame rate : 43.066 FPS (1024 SPF) 
Compression mode : Lossy 
Stream size : 41.2 MiB (3%) 
Language : English 
Default : No 
Forced : No 

Text 
ID : 4 
Format : UTF-8 
Codec ID : S_TEXT/UTF8 
Codec ID/Info : UTF-8 Plain Text 
Duration : 1 h 21 min 
Bit rate : 50 b/s 
Count of elements : 1153 
Stream size : 30.1 KiB (0%) 
Default : Yes 
Forced : No