18+ One Percent More Humid 2017 HDRip x264 with Sample ☻rDX☻

.
Download .Torrent Magnet
Torren Name: 18+ One Percent More Humid 2017 HDRip x264 with Sample ☻rDX☻
Org Name: One Percent More Humid
File size: 738.36 MB
Categories: English
Uploader: hollywoodlover
Seeders: 13 Leechers: 26 Downloaded: 2665
Last scrape: 23 October 2017 01:36:53


ebff283becf5d0f55d55d198c11928ba.png

18+ One Percent More Humid 2017 UNCENSORED Movies HDRip x264 with Sample ☻rDX☻ 
=============================================================================================== 

SCREEN SHOTS: 



or 

http://postimage.co.nr/2017/10/electronic/1.html 

File size : 730 MiB 
Duration : 1 h 40 min 
Overall bit rate : 1 017 kb/s 
Movie name : 18+ One Percent More Humid 2017 UNCENSORED Movies HDRip x264 ☻rDX☻ 

Video 
ID : 1 
Format : AVC 
Format/Info : Advanced Video Codec 
Format profile : [email protected] 
Format settings, CABAC : Yes 
Format settings, ReFrames : 4 frames 
Codec ID : V_MPEG4/ISO/AVC 
Duration : 1 h 40 min 
Bit rate : 900 kb/s 
Width : 720 pixels 
Height : 304 pixels 
Display aspect ratio : 2.35:1 
Frame rate mode : Constant 
Frame rate : 24.000 FPS 
Color space : YUV 
Chroma subsampling : 4:2:0 
Bit depth : 8 bits 
Scan type : Progressive 
Bits/(Pixel*Frame) : 0.171 
Stream size : 623 MiB (85%) 
Title : ☻rDX☻ 
Writing library : x264 

Audio 
ID : 2 
Format : AC-3 
Format/Info : Audio Coding 3 
Mode extension : CM (complete main) 
Format settings, Endianness : Big 
Codec ID : A_AC3 
Duration : 1 h 40 min 
Bit rate mode : Constant 
Bit rate : 128 kb/s 
Channel(s) : 2 channels 
Channel positions : Front: L R 
Sampling rate : 44.1 kHz 
Frame rate : 28.711 FPS (1536 spf) 
Bit depth : 16 bits 
Compression mode : Lossy 
Stream size : 91.9 MiB (13%) 
Title : ☻rDX☻ 
Default : Yes 
Forced : No 



IMDB : http://www.imdb.com/title/tt5817022