Bareilly Ki Barfi (2017) Hindi - 720p - HQ DVDRip - x264 - 900MB - ESubs.mkv

.
Download .Torrent Magnet
Torren Name: Bareilly Ki Barfi (2017) Hindi - 720p - HQ DVDRip - x264 - 900MB - ESubs.mkv
Org Name: Bareilly Ki Barfi
File size: 930.49 MB
Categories: Hindi
Uploader: TodayPkmovies
Seeders: 196 Leechers: 39 Downloaded: 17182
Last scrape: 23 October 2017 02:21:35


ebff283becf5d0f55d55d198c11928ba.png

Bareilly Ki Barfi (2017) Hindi - 720p - DVDRip - x264 - 900MB - Team TR 

SCREENSHOTS 
Click on any image to view full size 
SCREENSHOT 2 
SCREENSHOT 3 
SCREENSHOT 4 
SCREENSHOT 5



Team TamilRockers Exclusive 
Source : Hon3y (Thanks) 

Media Info 
General 
Format                         : Matroska 
File size                      : 930 MiB 
Duration                       : 2 h 41 min 
Overall bit rate               : 804 kb/s 


Video 
ID                             : 1 
Format                         : AVC 
Format/Info                    : Advanced Video Codec 
Duration                       : 2 h 41 min 
Bit rate                       : 606 kb/s 
Width                          : 1280pixels 
Height                         : 544 pixels 
Stream size                    : 691 MiB (74%) 

Audio 
ID                             : 2 
Format                         : AAC 
Duration                       : 2 h 41 min 
Bit rate                       : 192 kb/s 
Channel(s)                     : 2 channels 
Stream size                    : 222 MiB (24%)